<?xml version="1.0" standalone="no"?>
<!DOCTYPE svg PUBLIC "-//W3C//DTD SVG 1.1//EN" "http://www.w3.org/Graphics/SVG/1.1/DTD/svg11.dtd" >
<svg xmlns="http://www.w3.org/2000/svg">
<metadata></metadata>
<defs>
<font id="pcpaprregular" horiz-adv-x="1014" >
<font-face units-per-em="2048" ascent="1638" descent="-410" />
<missing-glyph horiz-adv-x="508" />
<glyph horiz-adv-x="0" />
<glyph unicode="&#xd;" horiz-adv-x="508" />
<glyph unicode=" "  horiz-adv-x="508" />
<glyph unicode="&#x09;" horiz-adv-x="508" />
<glyph unicode="&#xa0;" horiz-adv-x="508" />
<glyph unicode="!" horiz-adv-x="1901" d="M0 804.5q0 163.5 63.5 312.5t171.5 257t257 171.5t312.5 63.5t312.5 -63.5t257 -171.5t171.5 -257t63.5 -312q0 -252 -142 -456l392 -392q43 -43 43 -103t-43.5 -103.5t-103.5 -43.5q-61 0 -102 44l-392 391q-205 -142 -456 -142q-164 0 -313 63.5t-257 171.5t-171.5 257 t-63.5 312.5zM293 804.5q0 -211.5 150 -361.5t361.5 -150t362 150t150.5 361.5t-150.5 362t-362 150.5t-361.5 -150.5t-150 -362z" />
<glyph unicode="&#x22;" horiz-adv-x="1895" d="M40 177v805q45 -49 102 -88q368 -250 505 -351q58 -43 94 -66t96 -48t112 -25h1q52 0 112 25t96 48t94 66q173 125 506 351q57 40 101 88v-805q0 -68 -47.5 -115.5t-115.5 -47.5h-1493q-68 0 -115.5 47.5t-47.5 115.5zM40 1318q0 79 42 132t121 53h1493q66 0 114.5 -48 t48.5 -115q0 -80 -50 -153.5t-123 -124.5q-382 -265 -475 -331q-11 -6 -44 -30t-54.5 -38.5t-53 -33.5t-59 -27.5t-50.5 -8.5h-1q-23 0 -50.5 8.5t-59 27.5t-53 33.5t-54.5 38.5t-44 30q-92 66 -266 186t-207 145q-64 43 -119.5 117.5t-55.5 138.5z" />
<glyph unicode="#" horiz-adv-x="1901" d="M50 1066q0 221 127.5 345t352.5 124q62 0 127 -21t120.5 -57.5t96 -69.5t76.5 -68q35 35 75.5 68t96 69.5t120.5 57.5t127 21q225 0 352.5 -124t127.5 -345q0 -222 -230 -451l-625 -604q-19 -17 -44.5 -17t-44.5 17l-626 604q-11 9 -28 27.5t-55.5 66t-68.5 97.5 t-53.5 121.5t-23.5 138.5z" />
<glyph unicode="$" horiz-adv-x="1906" d="M100 996q0 37 57 47l512 74l229 464q20 42 50.5 42t49.5 -42l229 -464l512 -74q57 -10 57 -47q0 -22 -26 -49l-371 -360l88 -511q2 -7 2 -20q0 -22 -11 -36.5t-31 -14.5t-41 12l-458 241l-457 -241q-23 -12 -41 -12q-22 0 -32.5 14.5t-10.5 36.5q0 6 2 20l88 511 l-371 360q-26 27 -26 49z" />
<glyph unicode="%" horiz-adv-x="1899" d="M408 721v338h291v250q0 212 119 329t317 117q168 0 260 -13v-302h-179q-98 0 -132.5 -41t-34.5 -124v-216h335l-45 -338h-290v-867h-350v867h-291z" />
<glyph unicode="&#x26;" horiz-adv-x="1901" d="M10 93q42 -5 93 -5q267 0 476 164q-124 2 -222.5 76.5t-136.5 190.5q40 -7 73 -7q51 0 101 14q-133 27 -220.5 132t-87.5 245v5q81 -46 174 -49q-78 52 -125 136.5t-47 183.5q0 105 53 193q144 -177 350.5 -283t441.5 -119q-9 46 -9 89q0 159 112.5 271.5t271.5 112.5 q167 0 281 -122q129 25 244 93q-44 -137 -169 -211q111 11 221 59q-79 -117 -193 -199q1 -17 1 -50q0 -154 -45 -308t-137.5 -295.5t-219.5 -250.5t-307 -174t-384 -65q-322 0 -590 173z" />
<glyph unicode="'" horiz-adv-x="1901" d="M36 148q0 93 51 171.5t135 131.5q150 94 462 114q-37 48 -54.5 84.5t-17.5 83.5q0 41 24 97q-53 -4 -78 -4q-169 0 -285 110t-116 279q0 94 41 182t113 150q88 75 209 111.5t249 36.5h477l-157 -100h-150q84 -72 127.5 -152t43.5 -183q0 -82 -28 -148t-67.5 -106.5 t-79.5 -74t-68 -70t-28 -75.5q0 -41 37 -80.5t89 -78t103 -84t88 -119t37 -162.5q0 -103 -55 -197q-83 -140 -241.5 -205.5t-340.5 -65.5q-151 0 -282 47.5t-196 156.5q-42 69 -42 150zM249 201q0 -80 40 -141.5t104.5 -95t136 -50t145.5 -16.5q66 0 127 14.5t113 44.5 t83.5 83.5t31.5 124.5q0 29 -8 56.5t-16.5 48t-30.5 47t-33.5 40t-44 39.5t-42 33t-47.5 34.5t-42 29.5q-18 2 -55 2q-60 0 -119.5 -8t-123 -28.5t-111 -52.5t-78 -85t-30.5 -120zM370 1337q0 -53 11.5 -112t36 -117.5t59 -105.5t85.5 -77t111 -30q43 0 88.5 19t75.5 50 q61 65 61 182q0 66 -19.5 142.5t-55.5 148t-96.5 118.5t-133.5 47q-48 0 -94.5 -22.5t-75.5 -60.5q-53 -67 -53 -182zM1238 775v124h243v248h120v-248h243v-124h-243v-250h-120v250h-243z" />
<glyph unicode="(" horiz-adv-x="1899" d="M397 983v246q82 29 147.5 79t104 103t66 116.5t39 113t17.5 101.5q1 5 5 9t8 4h279v-484h381v-288h-382v-592q0 -34 7.5 -64t26.5 -60q18 -29 56 -47q36 -17 87 -17h6q89 3 153 34l92 -271q-27 -40 -127.5 -75.5t-202.5 -36.5h-20q-106 0 -197 29q-99 32 -163 85 t-108.5 121.5t-63.5 137t-19 134.5v622h-192z" />
<glyph unicode=")" horiz-adv-x="1901" d="M139 181.5q0 92.5 64.5 157.5t157 65t157.5 -65t65 -157.5t-65 -157t-157.5 -64.5t-157 64.5t-64.5 157zM139 765v155q0 34 24 55q19 19 50 19h5q186 -15 354 -92.5t300 -208.5q131 -132 208.5 -300t92.5 -354q2 -31 -19 -55t-55 -24h-155q-29 0 -50 19t-22 48 q-27 265 -214 452t-452 214q-29 1 -48 22t-19 50zM139 1347v164q0 32 23 54q20 20 51 20h4q301 -15 577.5 -138.5t491.5 -339.5q216 -215 339.5 -491.5t138.5 -577.5q2 -32 -20 -55t-54 -23h-164q-30 0 -51.5 20.5t-23.5 49.5q-13 247 -116 470.5t-267.5 388t-388 267.5 t-470.5 118q-29 1 -49.5 22.5t-20.5 50.5z" />
<glyph unicode="*" horiz-adv-x="1901" d="M5 775l945 823l337 -293v176h250v-381l359 -325h-339v-825h-435v352q0 49 -39 84q-40 35 -96 35h-74q-55 0 -96 -35q-38 -35 -38 -84v-352h-436v825h-338z" />
<glyph unicode="+" horiz-adv-x="2048" d="M8 663.5q0 48.5 34 82.5l164 165q34 34 83 34t83 -34l356 -358l796 797q34 34 82.5 34t82.5 -34l164 -165q34 -34 34 -82.5t-34 -82.5l-877 -878l-165 -165q-34 -34 -82.5 -34t-82.5 34l-165 165l-439 439q-34 34 -34 82.5z" />
<glyph unicode="," horiz-adv-x="1609" d="M55 238.5q0 59.5 42 102.5l443 442l-443 442q-42 43 -42 103.5t42 102.5l204 204q42 42 102.5 42t103.5 -42l442 -443l442 443q43 42 102.5 42t101.5 -42l206 -204q42 -42 42 -102.5t-42 -103.5l-443 -442l443 -442q42 -43 42 -102.5t-42 -101.5l-206 -206 q-42 -42 -101.5 -42t-102.5 42l-442 443l-442 -443q-43 -42 -103.5 -42t-102.5 42l-204 206q-42 42 -42 101.5z" />
<glyph unicode="-" horiz-adv-x="2295" d="M200 784v6q0 32 18 59q31 35 82 35q34 0 78 -16q55 -20 99 -52q-78 -1 -128 -72q-26 -36 -36 -71q-110 37 -113 111zM230 1074q-3 32 15 56q30 36 76 36q41 0 94 -28q56 -30 101 -73q-59 -12 -82 -150l-91 54q-107 41 -113 105zM331 1316q-2 33 15 53q35 37 87 37 q53 0 125 -38q71 -38 128 -91q-32 -6 -88 -186l-170 105q-94 56 -97 120zM468 635q0 20 9 41q19 43 63 63q26 11 51 11q19 0 38 -6l567 -187l16 37l-598 201q-45 15 -64 57q-9 20 -9 41.5t9 43.5q18 43 63 63q24 10 49 10q20 0 40 -7l594 -216l17 38l-476 175q-43 16 -61 58 q-8 20 -8 41q0 22 9 45q19 43 63 62q23 10 45 10l41 -8l681 -269q1 -1 3 -2t3 -2l110 -43l-79 214q-3 17 -3 33q0 40 21 78q31 54 87 72q20 6 40 6q33 0 62 -18q46 -29 57 -86l119 -273q12 -39 36 -98q26 -61 33 -83q10 -33 10 -63q0 -52 -29 -99l-174 -348l-1 1 q-60 -119 -177 -182q-86 -46 -173 -46l-63 6l-256 71q-7 2 -6 1l-660 183q-43 12 -62 50q-9 19 -9 39t9 41q18 42 61 63q27 12 53 12l35 -5l441 -133l17 37l-570 174q-45 14 -64 54q-10 21 -10 42zM555 1501q0 6 1 12q4 22 16 36q33 46 95 46q26 0 56 -8q52 -14 94 -41 l645 -350l-13 176q-3 28 -3 52q0 83 32 127q20 29 43 34q27 6 51 7q51 0 91 -29q29 -22 41 -47l20 -120q-7 1 -14 1q-118 0 -167 -159q-25 -85 -25 -170l-436 194q-118 67 -263 67q-36 0 -74 -4l-153 110q-37 31 -37 66z" />
<glyph unicode="." horiz-adv-x="2048" d="M33 954l915 763v-457q443 0 754 -314q314 -312 314 -754q0 -221 -90 -425q-62 360 -335 605q-274 247 -643 272v-452l-820 684zM2223 254h1v-1q0 1 -1 1z" />
<glyph unicode="/" horiz-adv-x="1902" d="M62 400.5q0 79.5 48 129.5l712 721q48 50 122 50t122 -50l712 -721q48 -50 48 -129.5t-48 -132.5q-115 -123 -237 0l-597 605l-597 -605q-122 -123 -237 0q-48 53 -48 132.5z" />
<glyph unicode="0" horiz-adv-x="1901" d="M159 701q0 -43 31 -74q31 -32 75 -32h128q19 -65 48 -120l-94 -93q-31 -32 -31 -76t31 -75l75 -74q32 -33 76 -33q43 0 76 33l91 91q61 -33 128 -53v-128q0 -44 32 -75q31 -31 74 -31h106q43 0 74 31q32 31 32 75v128q67 19 123 51l90 -89q32 -33 76 -33t75 33l74 74 q33 31 33 75t-33 76l-89 90q32 56 51 123h128q44 0 75 32q31 31 31 74v106q0 43 -31 74q-31 32 -75 32h-128q-20 68 -53 128l91 91q33 33 33 76q0 44 -33 76l-74 75q-31 31 -75 31t-76 -31l-93 -94q-55 29 -120 48v128q0 44 -32 75q-31 31 -74 31h-106q-43 0 -74 -31 q-32 -31 -32 -75v-128q-66 -19 -123 -51l-96 97q-33 31 -76 31q-44 0 -76 -31l-75 -75q-31 -32 -31 -76q0 -43 31 -76l97 -96q-32 -57 -51 -123h-128q-44 0 -75 -32q-31 -31 -31 -74v-106zM546 754q0 168 119 287t287 119t287 -119t119 -287t-119 -287t-287 -119t-287 119 t-119 287zM753 754q0 82 59 140q58 59 140 59t140 -59q59 -58 59 -140t-59 -140q-58 -59 -140 -59t-140 59q-59 58 -59 140z" />
<glyph unicode="1" horiz-adv-x="1902" d="M50 -76v1342q0 92 66 157q65 66 158 66h1342q92 0 157 -66q66 -65 66 -157v-1342q0 -93 -66 -158q-65 -66 -157 -66h-1342q-93 0 -158 66q-66 65 -66 158zM274 36q0 -46 32 -80q34 -32 80 -32h1117q47 0 80 32q33 34 33 80v1117q0 47 -33 80t-80 33h-1117q-46 0 -80 -33 q-32 -33 -32 -80v-1117zM433 83v417l313 522l332 -598l190 285l208 -313v-313h-1043zM1164 969q0 66 45 112q46 45 110 45q66 0 112 -45q45 -46 45 -112q0 -64 -45 -110q-46 -46 -112 -46q-64 0 -110 46q-45 46 -45 110z" />
<glyph unicode="2" horiz-adv-x="1899" d="M103 745q0 -53 37 -90t89 -37h493v-493q0 -52 37 -89t90 -37h201q53 0 90 37q38 37 38 89v493h492q52 0 90 37q36 37 36 90v201q0 53 -36 90q-38 38 -90 38h-492v503q0 52 -38 89q-37 37 -90 37h-201q-53 0 -90 -37t-37 -89v-503h-493q-52 0 -89 -38q-37 -37 -37 -90 v-201z" />
<glyph unicode="3" horiz-adv-x="1901" d="M301 -206l478 303l-453 262zM390 473l97 168l455 -263l-97 -167zM546 744l354 613l456 -263l-354 -613zM974 1482l157 271q21 37 63 49q41 10 79 -11l271 -157q37 -21 49 -63q10 -41 -11 -79l-157 -270z" />
<glyph unicode="4" horiz-adv-x="1900" d="M29 716q0 -379 269 -649q269 -268 648 -268q381 0 650 268q269 270 269 649q0 381 -269 650t-650 269q-379 0 -648 -269t-269 -650zM585 593l290 155v559h223v-655l-372 -258z" />
<glyph unicode="5" horiz-adv-x="1900" d="M5 788q0 296 210 506t506 210h451q296 0 506 -210t210 -506q0 -189 -93 -352q-90 -157 -244 -254h7v-440l-496 330h-341q-296 0 -506 210q-210 209 -210 506zM164 786q0 -225 159 -383q158 -159 383 -159h362l300 -180v213q160 58 259 194q102 141 102 315 q0 224 -158 383q-159 158 -383 158h-482q-225 0 -383 -158q-159 -159 -159 -383zM396 791q0 56 40 95q39 38 94 38t93 -38q40 -39 40 -95q0 -54 -40 -94q-38 -39 -93 -39t-94 39q-40 40 -40 94zM828 791q0 56 39 95q38 38 94 38q54 0 94 -38q39 -39 39 -95q0 -54 -39 -94 q-40 -39 -94 -39q-56 0 -94 39q-39 40 -39 94zM1259 791q0 56 38 95q39 38 95 38q55 0 94 -38q39 -39 39 -95q0 -54 -39 -94q-39 -39 -94 -39q-56 0 -95 39q-38 40 -38 94z" />
<glyph unicode="6" horiz-adv-x="1900" d="M15 896q0 298 287 508t699 210q402 0 649 -210q236 -202 236 -508t-236 -505q-247 -208 -649 -208q7 0 -196 28q-160 -202 -426 -251q-133 -25 -234 -9q187 89 240 234q20 54 14 101q-5 42 -25 54q-170 99 -264 243q-95 146 -95 313z" />
<glyph unicode="7" horiz-adv-x="1900" d="M12 163q0 -109 76 -187q78 -76 187 -76h1445q109 0 186 76q77 78 77 187v1309q0 109 -77 187q-77 76 -186 76h-1445q-109 0 -187 -76q-76 -78 -76 -187v-1309zM302 1066q0 66 51 114q50 47 121 47q72 0 122 -47q51 -48 51 -114q0 -67 -51 -114q-50 -48 -122 -48 q-71 0 -121 48q-51 47 -51 114zM649 594q9 40 43 62q33 22 74 14q40 -8 63 -41q60 -88 163 -88q112 0 157 82q21 34 60 46q39 10 75 -9t48 -57q10 -38 -9 -73q-103 -181 -331 -181q-209 0 -329 173q-22 35 -14 72zM1336 1066q0 66 50 114q51 47 122 47t122 -47 q50 -48 50 -114q0 -67 -50 -114q-51 -48 -122 -48t-122 48q-50 47 -50 114z" />
<glyph unicode="8" d="M77 403q0 112 57.5 214.5t160.5 158.5q41 21 82 35q-24 9 -48 21q-86 44 -133 123t-47 166t48 167t133.5 123t176.5 43q90 0 176 -43t134 -123t48 -167t-47 -166t-132 -123q-25 -13 -50 -21q42 -14 82 -35q103 -56 161 -158.5t58 -214.5t-56.5 -213.5t-159 -158 t-214.5 -56.5t-214.5 56.5t-159 158t-56.5 213.5zM235 422q0 -18 2 -35q14 -104 61.5 -196.5t118.5 -140.5q64 -44 128 -44h13q70 4 127.5 60t81.5 153q15 62 15 127q0 36 -5 73q-11 112 -73.5 212.5t-231.5 153.5q-114 -21 -181 -157q-56 -115 -56 -206zM278 1165 q0 -28 4 -57q12 -80 51.5 -152t218.5 -126q121 25 156 124q27 75 27 140q0 20 -3 39q-12 81 -52.5 154t-99.5 110q-55 33 -106 33h-9q-57 -3 -105.5 -46t-68.5 -119q-13 -49 -13 -100z" />
<glyph unicode="9" d="M77 1018q0 116 56.5 220.5t144 162.5t169.5 58q243 0 366.5 -162.5t123.5 -372.5q0 -320 -209 -634.5t-515 -314.5v48q177 12 326.5 179.5t233.5 467.5q-95 -93 -266 -93q-108 0 -211 57t-161 162.5t-58 221.5zM232 1077q0 -203 100 -333.5t215 -130.5q91 0 163.5 101.5 t72.5 250.5q0 153 -96 305.5t-231 152.5q-101 0 -162.5 -98.5t-61.5 -247.5z" />
<glyph unicode=":" horiz-adv-x="557" d="M129 136q0 15 16 31l82 84q15 14 29 14q13 0 31 -16l80 -86q12 -16 12 -29q0 -15 -14 -31l-80 -88q-20 -20 -29 -20q-16 0 -29 14l-88 101q-10 13 -10 26zM129 829q0 15 16 31l82 84q15 14 29 14q13 0 31 -16l80 -86q12 -16 12 -29q0 -15 -14 -31l-80 -88 q-20 -20 -29 -20q-16 0 -29 14l-88 101q-10 13 -10 26z" />
<glyph unicode=";" horiz-adv-x="557" d="M119 91v42l119 125q44 0 88.5 -65.5t44.5 -151.5q0 -109 -71 -226.5t-139 -117.5v43q73 43 87 190q0 119 -129 161zM129 828q0 15 16 31l82 84q15 14 29 14q13 0 31 -16l80 -86q12 -16 12 -29q0 -15 -14 -31l-80 -88q-20 -20 -29 -20q-16 0 -29 14l-88 101q-10 13 -10 26 z" />
<glyph unicode="&#x3c;" d="M87 674v83l840 484v-167l-625 -359l625 -355v-167z" />
<glyph unicode="=" d="M87 491v140h840v-140h-840zM87 803v140h840v-140h-840z" />
<glyph unicode="&#x3e;" d="M87 193v167l625 355l-625 359v167l840 -484v-83z" />
<glyph unicode="?" horiz-adv-x="748" d="M132 1266v64q128 104 242 104q132 0 212 -68t80 -182q0 -69 -32.5 -140t-124.5 -186q-90 -113 -141.5 -187.5t-51.5 -142.5q0 -63 35 -189h-47q-50 138 -50 211q0 109 116.5 312t116.5 309q0 82 -47 129t-130 47q-84 0 -178 -81zM207 136q0 15 16 31l82 84q15 14 29 14 q13 0 31 -16l80 -86q12 -16 12 -29q0 -15 -14 -31l-80 -88q-20 -20 -29 -20q-16 0 -29 14l-88 101q-10 13 -10 26z" />
<glyph unicode="@" horiz-adv-x="2019" d="M100 508q0 242 124 464.5t345.5 342t456.5 119.5q362 0 609 -230t247 -566q0 -270 -176 -439q-175 -168 -346 -170q-63 1 -100.5 18t-61.5 54q-29 -37 -82 -64.5t-133 -27.5q-144 0 -256.5 100.5t-112.5 233.5q1 87 53 166.5t132.5 115t173.5 49.5q67 16 110 42.5 t43 74.5q-2 69 -41 125t-129 56q-72 0 -121.5 -59t-50.5 -125h-45v159q0 20 72 40q73 20 178 20q109 -2 193.5 -64.5t84.5 -157.5v-589q0 -117 94 -117q185 35 267 191.5t82 382.5q-20 335 -232 540q-197 188 -480 188q-205 0 -392.5 -137.5t-269.5 -355.5 q-67 -178 -67 -361q0 -313 129.5 -511.5t305 -290.5t318.5 -92q274 0 575 208v-75q-263 -184 -571 -184q-240 0 -461 122.5t-343 342t-122 461.5zM753 343q0 -107 64 -194t183 -87q97 5 126 167v476q-54 -63 -154 -83q-83 -10 -151 -80t-68 -199z" />
<glyph unicode="A" horiz-adv-x="1540" />
<glyph unicode="B" horiz-adv-x="1219" />
<glyph unicode="C" horiz-adv-x="1399" />
<glyph unicode="D" horiz-adv-x="1518" />
<glyph unicode="E" horiz-adv-x="1151" />
<glyph unicode="F" horiz-adv-x="1079" />
<glyph unicode="G" horiz-adv-x="1479" />
<glyph unicode="H" horiz-adv-x="1579" />
<glyph unicode="I" horiz-adv-x="657" />
<glyph unicode="J" horiz-adv-x="657" />
<glyph unicode="K" horiz-adv-x="1382" />
<glyph unicode="L" horiz-adv-x="1128" />
<glyph unicode="M" horiz-adv-x="1798" />
<glyph unicode="N" horiz-adv-x="1554" />
<glyph unicode="O" horiz-adv-x="1614" />
<glyph unicode="P" horiz-adv-x="1120" />
<glyph unicode="Q" horiz-adv-x="1614" />
<glyph unicode="R" horiz-adv-x="1283" />
<glyph unicode="S" horiz-adv-x="1085" />
<glyph unicode="T" horiz-adv-x="1350" />
<glyph unicode="U" horiz-adv-x="1501" />
<glyph unicode="V" horiz-adv-x="1456" />
<glyph unicode="W" horiz-adv-x="2030" />
<glyph unicode="X" horiz-adv-x="1350" />
<glyph unicode="Y" horiz-adv-x="1233" />
<glyph unicode="Z" horiz-adv-x="1124" />
<glyph unicode="[" horiz-adv-x="758" />
<glyph unicode="\" horiz-adv-x="569" />
<glyph unicode="]" horiz-adv-x="758" />
<glyph unicode="^" />
<glyph unicode="_" horiz-adv-x="1024" d="M0 -100h1024v-60h-1024v60z" />
<glyph unicode="`" horiz-adv-x="1024" d="M212 1363q0 31 20.5 51t53.5 20q20 0 40.5 -12t55.5 -47l291 -296h-69l-330 202q-31 20 -46.5 40t-15.5 42z" />
<glyph unicode="a" horiz-adv-x="922" />
<glyph unicode="b" horiz-adv-x="995" />
<glyph unicode="c" horiz-adv-x="905" />
<glyph unicode="d" horiz-adv-x="1040" />
<glyph unicode="e" horiz-adv-x="909" />
<glyph unicode="f" horiz-adv-x="559" />
<glyph unicode="g" horiz-adv-x="899" />
<glyph unicode="h" horiz-adv-x="1104" />
<glyph unicode="i" horiz-adv-x="514" />
<glyph unicode="j" horiz-adv-x="510" />
<glyph unicode="k" horiz-adv-x="1026" />
<glyph unicode="l" horiz-adv-x="522" />
<glyph unicode="m" horiz-adv-x="1569" />
<glyph unicode="n" horiz-adv-x="1108" />
<glyph unicode="o" horiz-adv-x="1010" />
<glyph unicode="p" horiz-adv-x="1010" />
<glyph unicode="q" horiz-adv-x="1024" />
<glyph unicode="r" horiz-adv-x="692" />
<glyph unicode="s" horiz-adv-x="702" />
<glyph unicode="t" horiz-adv-x="674" />
<glyph unicode="u" horiz-adv-x="1059" />
<glyph unicode="v" horiz-adv-x="993" />
<glyph unicode="w" horiz-adv-x="1415" />
<glyph unicode="x" horiz-adv-x="1010" />
<glyph unicode="y" horiz-adv-x="868" />
<glyph unicode="z" horiz-adv-x="727" />
<glyph unicode="{" d="M240 638v60q172 5 223 71t51 133v468q0 74 77 141.5t185 67.5h108v-50h-90q-61 0 -107 -33.5t-47 -91.5v-500q0 -83 -60.5 -158.5t-142.5 -76.5v-2q82 -1 143 -76t61 -158l-1 -500q1 -58 47 -91.5t107 -33.5h90v-50h-108q-108 0 -184.5 67.5t-77.5 141.5v468 q0 66 -51 132t-223 71z" />
<glyph unicode="|" d="M427 -418v1995h160v-1995h-160z" />
<glyph unicode="}" d="M130 -192h90q61 0 107 33.5t47 91.5l-1 500q0 83 61 158t144 76v2q-83 1 -143.5 76.5t-60.5 158.5v500q-1 58 -47 91.5t-107 33.5h-90v50h108q108 0 185 -67.5t77 -141.5v-468q0 -67 51 -133t223 -71v-60q-172 -5 -223 -71t-51 -132v-468q-1 -74 -77.5 -141.5 t-184.5 -67.5h-108v50z" />
<glyph unicode="~" d="M94 556v156q64 73 123 99t114 26q64 0 181.5 -49.5t172.5 -49.5q52 0 108.5 28t129.5 112v-156q-63 -72 -122 -97.5t-116 -25.5q-60 0 -177.5 48.5t-176.5 48.5q-51 0 -107.5 -28t-129.5 -112z" />
<glyph unicode="&#xa1;" horiz-adv-x="672" />
<glyph unicode="&#xa2;" horiz-adv-x="1139" />
<glyph unicode="&#xa3;" d="M76 673v60h135q-58 143 -58 253q0 226 123.5 347t306.5 121h4q75 0 185.5 -14t110.5 -34v-161h-58q-5 61 -77 102q-72 31 -160 31h-2q-100 0 -190 -101q-84 -93 -84 -241q0 -15 1 -30q0 -135 53 -273h360v-60h-334q14 -30 31 -60q35 -63 35 -138q0 -161 -162 -375h402 q130 0 189 132l49 -1l-103 -231h-719l1 50q187 238 187 418q0 77 -34 143q-17 32 -31 62h-161z" />
<glyph unicode="&#xa4;" d="M122 413l118 117q-32 46 -48 103q-12 42 -12 84q0 44 13 87q16 55 47 99l-118 118l80 81l118 -118q44 30 99 46q44 14 89 14q41 0 83 -12q57 -17 102 -48l118 118l80 -81l-117 -117q31 -46 48 -102q12 -42 12 -85q0 -42 -12 -85q-17 -56 -48 -102l117 -117l-80 -81 l-118 118q-45 -32 -101 -48q-42 -12 -85 -12q-42 0 -85 12q-57 16 -102 48l-118 -118zM284 716q0 -28 9 -56q16 -59 57 -100q41 -40 99 -57q29 -8 58 -8t58 8q58 17 99 57q40 41 57 99q9 29 9 58t-9 58q-17 58 -57 99q-41 40 -100 57q-29 8 -58 8t-58 -9q-58 -17 -98 -56 q-39 -40 -56 -98q-10 -30 -10 -60z" />
<glyph unicode="&#xa5;" horiz-adv-x="1262" d="M8 1176q0 19 10.5 27.5t32.5 8.5q27 0 123 -8t164 -8h88q33 0 41 -6.5t8 -26.5q0 -8 -15 -14t-38 -6q-6 0 -18.5 2t-18.5 2q-24 0 -37.5 -9.5t-13.5 -25.5q0 -18 16.5 -52t46.5 -77l158 -221q13 -19 33 -53q41 -70 71 -70q9 0 16.5 5t14.5 15l277 396q8 12 13 26.5 t5 24.5q0 18 -10 27t-37 14q-15 2 -41 4q-47 3 -47 25q0 15 8 22.5t25 7.5q3 0 15 -1q56 -7 108 -7h139q30 0 65 1t37 1q11 0 18.5 -4.5t8.5 -11.5q0 -28 -38 -34q-18 -3 -27 -5q-63 -15 -147 -117q-7 -9 -12 -15l-169 -206h323q15 0 24 -6t9 -17q0 -15 -6 -20.5t-23 -5.5 h-366q-46 -57 -96.5 -112.5t-52.5 -59.5h511q18 0 25.5 -5.5t7.5 -17.5q0 -14 -7 -21t-22 -7h-530q0 -11 -1 -30.5t-1 -29.5l2 -215q0 -114 5.5 -150t20.5 -44q30 -17 107.5 -19t77.5 -31q0 -12 -10 -20t-25 -8q-2 0 -35.5 4t-64.5 4q-91 0 -208.5 -4t-142.5 -4q-31 0 -40 4 t-9 16t8 18.5t37 12.5q9 2 25 5q74 16 92 32q17 13 24 47t7 102l-2 242q0 19 -1.5 35t-4.5 32l-484 1q-14 0 -21 6.5t-7 19.5t6.5 19t21.5 6h467l-121 172h-344q-17 0 -23.5 5.5t-6.5 18.5q0 14 6 19.5t22 5.5h307q-43 57 -108 155q-131 197 -227 197q-7 0 -13 5.5t-6 11.5z " />
<glyph unicode="&#xa6;" d="M427 371h160v-789h-160v789zM427 789v789h160v-789h-160z" />
<glyph unicode="&#xa7;" d="M170 1130q0 148 89 237q82 79 216 86q8 1 17 1h3q66 0 163 -16.5t97 -41.5v-194h-51q-5 81 -80 132q-70 47 -149 51h-15q-78 0 -125 -44.5t-47 -117.5q0 -132 287 -269q149 -67 204.5 -143.5t55.5 -187.5q0 -171 -101 -282q-47 -39 -99 -64q108 -56 154 -118 q55 -77 55 -187q0 -171 -101 -283q-124 -102 -277 -105v1q-6 -1 -13 -1h-3q-66 0 -163 16.5t-97 41.5v194h51q5 -81 80 -132q68 -45 145 -50q113 6 185 69q72 64 72 165q0 125 -316 276q-123 64 -175.5 137t-52.5 177q0 148 89 237q67 65 170 82l-40 19q-123 64 -175.5 137 t-52.5 177zM297 571q0 -123 248 -250q56 16 97 53q73 65 73 166q0 5 -1 10h-2q-1 14 -4 27q-22 61 -113 127q-59 29 -126 29q-78 0 -125 -44.5t-47 -117.5z" />
<glyph unicode="&#xa8;" horiz-adv-x="1024" d="M209 1263q0 13 14 26l71 72q13 12 25 12q11 0 27 -14l69 -73q10 -14 10 -25q0 -13 -12 -27l-69 -75q-17 -17 -25 -17q-14 0 -25 12l-76 86q-9 12 -9 23zM574 1263q0 13 14 26l71 72q13 12 25 12q11 0 27 -13l69 -74q10 -14 10 -25q0 -13 -12 -26l-69 -76q-17 -17 -25 -17 q-14 0 -25 12l-76 87q-9 11 -9 22z" />
<glyph unicode="&#xa9;" horiz-adv-x="1674" d="M100 718q0 148 55.5 283t159.5 238q102 104 238.5 160.5t286.5 56.5q145 0 280 -56.5t239 -160.5q102 -101 158.5 -238t56.5 -283q0 -147 -56.5 -282t-162.5 -240q-105 -105 -239 -159.5t-283 -54.5q-146 0 -278 55.5t-238 160.5q-106 104 -161.5 237.5t-55.5 282.5z M160 718q0 -137 51 -259t148 -219q98 -96 219 -147t256 -51q137 0 259.5 50.5t219.5 145.5q97 98 149 221.5t52 258.5q0 134 -52 259.5t-145 219.5q-96 96 -220 147.5t-258 51.5q-137 0 -262 -51.5t-220 -147.5t-146 -219.5t-51 -259.5zM351 719q0 126 65.5 244t187.5 184.5 t254 66.5q38 0 75 -6.5t76 -20.5q5 -1 9 -1q19 0 26 30h42l72 -198h-44q-52 94 -131 124q-72 26 -147 26h-15q-86 -8 -166.5 -71t-121.5 -177q-33 -90 -33 -184q0 -25 2 -50q11 -121 69.5 -224t149.5 -152q72 -40 166 -42q124 0 194 56t70 126h53v-100q0 -46 -96.5 -86.5 t-242.5 -40.5q-142 0 -264 68t-186 185t-64 243z" />
<glyph unicode="&#xaa;" horiz-adv-x="648" />
<glyph unicode="&#xab;" horiz-adv-x="944" d="M174 479l342 303h14v-37l-205 -266l205 -266v-37h-14zM487 479l342 303h14v-37l-205 -266l205 -266v-37h-14z" />
<glyph unicode="&#xac;" d="M87 667v100h840v-491l-1 -1h-98v392h-741z" />
<glyph unicode="&#xad;" horiz-adv-x="2295" d="M200 784v6q0 32 18 59q31 35 82 35q34 0 78 -16q55 -20 99 -52q-78 -1 -128 -72q-26 -36 -36 -71q-110 37 -113 111zM230 1074q-3 32 15 56q30 36 76 36q41 0 94 -28q56 -30 101 -73q-59 -12 -82 -150l-91 54q-107 41 -113 105zM331 1316q-2 33 15 53q35 37 87 37 q53 0 125 -38q71 -38 128 -91q-32 -6 -88 -186l-170 105q-94 56 -97 120zM468 635q0 20 9 41q19 43 63 63q26 11 51 11q19 0 38 -6l567 -187l16 37l-598 201q-45 15 -64 57q-9 20 -9 41.5t9 43.5q18 43 63 63q24 10 49 10q20 0 40 -7l594 -216l17 38l-476 175q-43 16 -61 58 q-8 20 -8 41q0 22 9 45q19 43 63 62q23 10 45 10l41 -8l681 -269q1 -1 3 -2t3 -2l110 -43l-79 214q-3 17 -3 33q0 40 21 78q31 54 87 72q20 6 40 6q33 0 62 -18q46 -29 57 -86l119 -273q12 -39 36 -98q26 -61 33 -83q10 -33 10 -63q0 -52 -29 -99l-174 -348l-1 1 q-60 -119 -177 -182q-86 -46 -173 -46l-63 6l-256 71q-7 2 -6 1l-660 183q-43 12 -62 50q-9 19 -9 39t9 41q18 42 61 63q27 12 53 12l35 -5l441 -133l17 37l-570 174q-45 14 -64 54q-10 21 -10 42zM555 1501q0 6 1 12q4 22 16 36q33 46 95 46q26 0 56 -8q52 -14 94 -41 l645 -350l-13 176q-3 28 -3 52q0 83 32 127q20 29 43 34q27 6 51 7q51 0 91 -29q29 -22 41 -47l20 -120q-7 1 -14 1q-118 0 -167 -159q-25 -85 -25 -170l-436 194q-118 67 -263 67q-36 0 -74 -4l-153 110q-37 31 -37 66z" />
<glyph unicode="&#xae;" horiz-adv-x="1674" d="M100 718q0 148 55.5 283t159.5 238q102 104 238.5 160.5t286.5 56.5q145 0 280 -56.5t239 -160.5q102 -101 158.5 -238t56.5 -283q0 -147 -56.5 -282t-162.5 -240q-105 -105 -239 -159.5t-283 -54.5q-146 0 -278 55.5t-238 160.5q-106 104 -161.5 237.5t-55.5 282.5z M160 718q0 -137 51 -259t148 -219q98 -96 219 -147t256 -51q137 0 259.5 50.5t219.5 145.5q97 98 149 221.5t52 258.5q0 134 -52 259.5t-145 219.5q-96 96 -220 147.5t-258 51.5q-137 0 -262 -51.5t-220 -147.5t-146 -219.5t-51 -259.5zM524 269v50h43q37 0 37 121v538 q0 121 -37 121h-43v70h356q64 -1 125 -42q60 -41 92.5 -114t32.5 -152q0 -78 -32 -150.5t-114 -134.5l82 -116q100 -141 150 -141h34v-50h-346v50h45q30 0 30 22q0 29 -69 114l-75 102q-42 0 -84 42v-159q0 -121 36 -121h53v-50h-316zM751 725l3 -8q23 -56 56 -81 q29 -22 56 -22h6q31 4 61.5 38.5t46.5 97.5q13 50 13 103q0 13 -1 27q-4 67 -28 124.5t-56.5 76t-63.5 18.5h-93v-374z" />
<glyph unicode="&#xaf;" horiz-adv-x="670" />
<glyph unicode="&#xb0;" horiz-adv-x="674" d="M60 1164q0 116 81.5 197t197.5 81q115 0 196 -81.5t81 -196.5q0 -114 -82 -196t-197 -82q-117 0 -197 81t-80 197zM130 1163q0 -87 61 -147t148 -60t147 60t60 147t-60.5 148t-146.5 61t-147.5 -61t-61.5 -148z" />
<glyph unicode="&#xb1;" />
<glyph unicode="&#xb2;" />
<glyph unicode="&#xb3;" />
<glyph unicode="&#xb4;" horiz-adv-x="1024" d="M316 1078l291 297q35 35 55.5 47t40.5 12q33 0 53.5 -20t20.5 -51q0 -22 -15.5 -42t-46.5 -40l-330 -203h-69z" />
<glyph unicode="&#xb5;" horiz-adv-x="1180" />
<glyph unicode="&#xb6;" horiz-adv-x="1024" d="M93 1086q0 157 107.5 253t285.5 96h443v-70h-127v-1365h-82v1365h-166v-1365h-84v738q-174 8 -275.5 102.5t-101.5 245.5z" />
<glyph unicode="&#xb7;" horiz-adv-x="508" d="M129 709q0 15 16 31l82 84q15 14 29 14q13 0 31 -16l80 -86q12 -16 12 -29q0 -15 -14 -31l-80 -88q-20 -20 -29 -20q-16 0 -29 14l-88 101q-10 13 -10 26z" />
<glyph unicode="&#xb8;" horiz-adv-x="1024" d="M360 -290q85 -52 152 -52q66 0 94.5 21.5t28.5 66.5t-49 64q-40 16 -102 16q-16 0 -34 -2l48 176h63l-37 -104q32 4 62 5q86 0 134 -40.5t48 -113.5q0 -76 -58.5 -120.5t-160.5 -44.5q-109 0 -189 32v96z" />
<glyph unicode="&#xb9;" />
<glyph unicode="&#xba;" horiz-adv-x="718" />
<glyph unicode="&#xbb;" horiz-adv-x="944" d="M101 176v37l205 266l-205 266v37h14l342 -303l-342 -303h-14zM414 176v37l205 266l-205 266v37h14l342 -303l-342 -303h-14z" />
<glyph unicode="&#xbc;" horiz-adv-x="1708" />
<glyph unicode="&#xbd;" horiz-adv-x="1964" />
<glyph unicode="&#xbe;" horiz-adv-x="1708" />
<glyph unicode="&#xbf;" horiz-adv-x="748" />
<glyph unicode="&#xc0;" horiz-adv-x="1540" />
<glyph unicode="&#xc1;" horiz-adv-x="1540" />
<glyph unicode="&#xc2;" horiz-adv-x="1540" />
<glyph unicode="&#xc3;" horiz-adv-x="1540" />
<glyph unicode="&#xc4;" horiz-adv-x="1540" />
<glyph unicode="&#xc5;" horiz-adv-x="1540" />
<glyph unicode="&#xc6;" horiz-adv-x="2118" />
<glyph unicode="&#xc7;" horiz-adv-x="1399" />
<glyph unicode="&#xc8;" horiz-adv-x="1151" />
<glyph unicode="&#xc9;" horiz-adv-x="1151" />
<glyph unicode="&#xca;" horiz-adv-x="1151" />
<glyph unicode="&#xcb;" horiz-adv-x="1151" />
<glyph unicode="&#xcc;" horiz-adv-x="657" />
<glyph unicode="&#xcd;" horiz-adv-x="657" />
<glyph unicode="&#xce;" horiz-adv-x="657" />
<glyph unicode="&#xcf;" horiz-adv-x="657" />
<glyph unicode="&#xd0;" horiz-adv-x="1518" />
<glyph unicode="&#xd1;" horiz-adv-x="1554" />
<glyph unicode="&#xd2;" horiz-adv-x="1614" />
<glyph unicode="&#xd3;" horiz-adv-x="1614" />
<glyph unicode="&#xd4;" horiz-adv-x="1614" />
<glyph unicode="&#xd5;" horiz-adv-x="1614" />
<glyph unicode="&#xd6;" horiz-adv-x="1614" />
<glyph unicode="&#xd7;" d="M161 470l247 247l-247 248l99 98l247 -247l248 247l98 -99l-247 -247l247 -247l-99 -99l-247 247l-247 -247z" />
<glyph unicode="&#xd8;" horiz-adv-x="1614" />
<glyph unicode="&#xd9;" horiz-adv-x="1501" />
<glyph unicode="&#xda;" horiz-adv-x="1501" />
<glyph unicode="&#xdb;" horiz-adv-x="1501" />
<glyph unicode="&#xdc;" horiz-adv-x="1501" />
<glyph unicode="&#xdd;" horiz-adv-x="1233" />
<glyph unicode="&#xde;" horiz-adv-x="1120" />
<glyph unicode="&#xdf;" horiz-adv-x="1251" />
<glyph unicode="&#xe0;" horiz-adv-x="922" />
<glyph unicode="&#xe1;" horiz-adv-x="922" />
<glyph unicode="&#xe2;" horiz-adv-x="922" />
<glyph unicode="&#xe3;" horiz-adv-x="922" />
<glyph unicode="&#xe4;" horiz-adv-x="922" />
<glyph unicode="&#xe5;" horiz-adv-x="922" />
<glyph unicode="&#xe6;" horiz-adv-x="1454" />
<glyph unicode="&#xe7;" horiz-adv-x="905" />
<glyph unicode="&#xe8;" horiz-adv-x="909" />
<glyph unicode="&#xe9;" horiz-adv-x="909" />
<glyph unicode="&#xea;" horiz-adv-x="909" />
<glyph unicode="&#xeb;" horiz-adv-x="909" />
<glyph unicode="&#xec;" horiz-adv-x="514" />
<glyph unicode="&#xed;" horiz-adv-x="514" />
<glyph unicode="&#xee;" horiz-adv-x="514" />
<glyph unicode="&#xef;" horiz-adv-x="514" />
<glyph unicode="&#xf0;" horiz-adv-x="1139" />
<glyph unicode="&#xf1;" horiz-adv-x="1108" />
<glyph unicode="&#xf2;" horiz-adv-x="1010" />
<glyph unicode="&#xf3;" horiz-adv-x="1010" />
<glyph unicode="&#xf4;" horiz-adv-x="1010" />
<glyph unicode="&#xf5;" horiz-adv-x="1010" />
<glyph unicode="&#xf6;" horiz-adv-x="1010" />
<glyph unicode="&#xf7;" d="M87 647v140h839l1 -1v-139h-840zM382 377q0 15 16 31l82 84q15 14 29 14q13 0 31 -16l80 -86q12 -16 12 -29q0 -15 -14 -31l-80 -88q-20 -20 -29 -20q-16 0 -29 14l-88 101q-10 13 -10 26zM382 1070q0 15 16 31l82 84q15 14 29 14q13 0 31 -16l80 -86q12 -16 12 -29 q0 -15 -14 -31l-80 -88q-20 -20 -29 -20q-16 0 -29 14l-88 101q-10 13 -10 26z" />
<glyph unicode="&#xf8;" horiz-adv-x="1010" />
<glyph unicode="&#xf9;" horiz-adv-x="1059" />
<glyph unicode="&#xfa;" horiz-adv-x="1059" />
<glyph unicode="&#xfb;" horiz-adv-x="1059" />
<glyph unicode="&#xfc;" horiz-adv-x="1059" />
<glyph unicode="&#xfd;" horiz-adv-x="868" />
<glyph unicode="&#xfe;" horiz-adv-x="1010" />
<glyph unicode="&#xff;" horiz-adv-x="868" />
<glyph unicode="&#x2c6;" horiz-adv-x="1024" d="M221 1079l232 355h118l232 -355h-58l-233 216l-233 -216h-58z" />
<glyph unicode="&#x2dc;" horiz-adv-x="1024" d="M234 1132q19 106 68 158.5t129 52.5q46 -1 113 -24q64 -23 112 -23h4q36 0 58 20t36 66h54q-20 -103 -68.5 -154t-126.5 -51h-4q-50 0 -113 23q-66 24 -114 24q-39 0 -60.5 -20.5t-33.5 -71.5h-54z" />
<glyph unicode="&#x2000;" horiz-adv-x="902" />
<glyph unicode="&#x2001;" horiz-adv-x="1805" />
<glyph unicode="&#x2002;" horiz-adv-x="902" />
<glyph unicode="&#x2003;" horiz-adv-x="1805" />
<glyph unicode="&#x2004;" horiz-adv-x="601" />
<glyph unicode="&#x2005;" horiz-adv-x="451" />
<glyph unicode="&#x2006;" horiz-adv-x="300" />
<glyph unicode="&#x2007;" horiz-adv-x="300" />
<glyph unicode="&#x2008;" horiz-adv-x="225" />
<glyph unicode="&#x2009;" horiz-adv-x="361" />
<glyph unicode="&#x200a;" horiz-adv-x="100" />
<glyph unicode="&#x2010;" horiz-adv-x="2295" d="M200 784v6q0 32 18 59q31 35 82 35q34 0 78 -16q55 -20 99 -52q-78 -1 -128 -72q-26 -36 -36 -71q-110 37 -113 111zM230 1074q-3 32 15 56q30 36 76 36q41 0 94 -28q56 -30 101 -73q-59 -12 -82 -150l-91 54q-107 41 -113 105zM331 1316q-2 33 15 53q35 37 87 37 q53 0 125 -38q71 -38 128 -91q-32 -6 -88 -186l-170 105q-94 56 -97 120zM468 635q0 20 9 41q19 43 63 63q26 11 51 11q19 0 38 -6l567 -187l16 37l-598 201q-45 15 -64 57q-9 20 -9 41.5t9 43.5q18 43 63 63q24 10 49 10q20 0 40 -7l594 -216l17 38l-476 175q-43 16 -61 58 q-8 20 -8 41q0 22 9 45q19 43 63 62q23 10 45 10l41 -8l681 -269q1 -1 3 -2t3 -2l110 -43l-79 214q-3 17 -3 33q0 40 21 78q31 54 87 72q20 6 40 6q33 0 62 -18q46 -29 57 -86l119 -273q12 -39 36 -98q26 -61 33 -83q10 -33 10 -63q0 -52 -29 -99l-174 -348l-1 1 q-60 -119 -177 -182q-86 -46 -173 -46l-63 6l-256 71q-7 2 -6 1l-660 183q-43 12 -62 50q-9 19 -9 39t9 41q18 42 61 63q27 12 53 12l35 -5l441 -133l17 37l-570 174q-45 14 -64 54q-10 21 -10 42zM555 1501q0 6 1 12q4 22 16 36q33 46 95 46q26 0 56 -8q52 -14 94 -41 l645 -350l-13 176q-3 28 -3 52q0 83 32 127q20 29 43 34q27 6 51 7q51 0 91 -29q29 -22 41 -47l20 -120q-7 1 -14 1q-118 0 -167 -159q-25 -85 -25 -170l-436 194q-118 67 -263 67q-36 0 -74 -4l-153 110q-37 31 -37 66z" />
<glyph unicode="&#x2011;" horiz-adv-x="2295" d="M200 784v6q0 32 18 59q31 35 82 35q34 0 78 -16q55 -20 99 -52q-78 -1 -128 -72q-26 -36 -36 -71q-110 37 -113 111zM230 1074q-3 32 15 56q30 36 76 36q41 0 94 -28q56 -30 101 -73q-59 -12 -82 -150l-91 54q-107 41 -113 105zM331 1316q-2 33 15 53q35 37 87 37 q53 0 125 -38q71 -38 128 -91q-32 -6 -88 -186l-170 105q-94 56 -97 120zM468 635q0 20 9 41q19 43 63 63q26 11 51 11q19 0 38 -6l567 -187l16 37l-598 201q-45 15 -64 57q-9 20 -9 41.5t9 43.5q18 43 63 63q24 10 49 10q20 0 40 -7l594 -216l17 38l-476 175q-43 16 -61 58 q-8 20 -8 41q0 22 9 45q19 43 63 62q23 10 45 10l41 -8l681 -269q1 -1 3 -2t3 -2l110 -43l-79 214q-3 17 -3 33q0 40 21 78q31 54 87 72q20 6 40 6q33 0 62 -18q46 -29 57 -86l119 -273q12 -39 36 -98q26 -61 33 -83q10 -33 10 -63q0 -52 -29 -99l-174 -348l-1 1 q-60 -119 -177 -182q-86 -46 -173 -46l-63 6l-256 71q-7 2 -6 1l-660 183q-43 12 -62 50q-9 19 -9 39t9 41q18 42 61 63q27 12 53 12l35 -5l441 -133l17 37l-570 174q-45 14 -64 54q-10 21 -10 42zM555 1501q0 6 1 12q4 22 16 36q33 46 95 46q26 0 56 -8q52 -14 94 -41 l645 -350l-13 176q-3 28 -3 52q0 83 32 127q20 29 43 34q27 6 51 7q51 0 91 -29q29 -22 41 -47l20 -120q-7 1 -14 1q-118 0 -167 -159q-25 -85 -25 -170l-436 194q-118 67 -263 67q-36 0 -74 -4l-153 110q-37 31 -37 66z" />
<glyph unicode="&#x2012;" horiz-adv-x="2295" d="M200 784v6q0 32 18 59q31 35 82 35q34 0 78 -16q55 -20 99 -52q-78 -1 -128 -72q-26 -36 -36 -71q-110 37 -113 111zM230 1074q-3 32 15 56q30 36 76 36q41 0 94 -28q56 -30 101 -73q-59 -12 -82 -150l-91 54q-107 41 -113 105zM331 1316q-2 33 15 53q35 37 87 37 q53 0 125 -38q71 -38 128 -91q-32 -6 -88 -186l-170 105q-94 56 -97 120zM468 635q0 20 9 41q19 43 63 63q26 11 51 11q19 0 38 -6l567 -187l16 37l-598 201q-45 15 -64 57q-9 20 -9 41.5t9 43.5q18 43 63 63q24 10 49 10q20 0 40 -7l594 -216l17 38l-476 175q-43 16 -61 58 q-8 20 -8 41q0 22 9 45q19 43 63 62q23 10 45 10l41 -8l681 -269q1 -1 3 -2t3 -2l110 -43l-79 214q-3 17 -3 33q0 40 21 78q31 54 87 72q20 6 40 6q33 0 62 -18q46 -29 57 -86l119 -273q12 -39 36 -98q26 -61 33 -83q10 -33 10 -63q0 -52 -29 -99l-174 -348l-1 1 q-60 -119 -177 -182q-86 -46 -173 -46l-63 6l-256 71q-7 2 -6 1l-660 183q-43 12 -62 50q-9 19 -9 39t9 41q18 42 61 63q27 12 53 12l35 -5l441 -133l17 37l-570 174q-45 14 -64 54q-10 21 -10 42zM555 1501q0 6 1 12q4 22 16 36q33 46 95 46q26 0 56 -8q52 -14 94 -41 l645 -350l-13 176q-3 28 -3 52q0 83 32 127q20 29 43 34q27 6 51 7q51 0 91 -29q29 -22 41 -47l20 -120q-7 1 -14 1q-118 0 -167 -159q-25 -85 -25 -170l-436 194q-118 67 -263 67q-36 0 -74 -4l-153 110q-37 31 -37 66z" />
<glyph unicode="&#x2013;" horiz-adv-x="1108" d="M56 419v120h996v-120h-996z" />
<glyph unicode="&#x2014;" horiz-adv-x="2048" d="M0 419v120h2048v-120h-2048z" />
<glyph unicode="&#x2018;" horiz-adv-x="557" d="M186 1233q0 109 71 226.5t139 117.5v-43q-73 -43 -87 -190q0 -119 129 -161v-42l-119 -125q-44 0 -88.5 65.5t-44.5 151.5z" />
<glyph unicode="&#x2019;" horiz-adv-x="557" d="M119 1410v42l119 125q44 0 88.5 -65.5t44.5 -151.5q0 -109 -71 -226.5t-139 -117.5v43q73 43 87 190q0 119 -129 161z" />
<glyph unicode="&#x201a;" horiz-adv-x="557" d="M119 114v42l119 125q44 0 88.5 -65.5t44.5 -151.5q0 -109 -71 -226.5t-139 -117.5v43q73 43 87 190q0 119 -129 161z" />
<glyph unicode="&#x201c;" horiz-adv-x="910" d="M186 1233q0 109 71 226.5t139 117.5v-43q-73 -43 -87 -190q0 -119 129 -161v-42l-119 -125q-44 0 -88.5 65.5t-44.5 151.5zM539 1233q0 109 71 226.5t139 117.5v-43q-73 -43 -87 -190q0 -119 129 -161v-42l-119 -125q-44 0 -88.5 65.5t-44.5 151.5z" />
<glyph unicode="&#x201d;" horiz-adv-x="910" d="M119 1410v42l119 125q44 0 88.5 -65.5t44.5 -151.5q0 -109 -71 -226.5t-139 -117.5v43q73 43 87 190q0 119 -129 161zM472 1410v42l119 125q44 0 88.5 -65.5t44.5 -151.5q0 -109 -71 -226.5t-139 -117.5v43q73 43 87 190q0 119 -129 161z" />
<glyph unicode="&#x201e;" horiz-adv-x="910" d="M119 114v42l119 125q44 0 88.5 -65.5t44.5 -151.5q0 -109 -71 -226.5t-139 -117.5v43q73 43 87 190q0 119 -129 161zM472 114v42l119 125q44 0 88.5 -65.5t44.5 -151.5q0 -109 -71 -226.5t-139 -117.5v43q73 43 87 190q0 119 -129 161z" />
<glyph unicode="&#x2022;" horiz-adv-x="1024" d="M216 718q0 123 87 209t210 86q122 0 208.5 -86.5t86.5 -208.5t-87.5 -209.5t-209.5 -87.5q-123 0 -209 87t-86 210z" />
<glyph unicode="&#x2026;" horiz-adv-x="2048" d="M129 136q0 15 16 31l82 84q15 14 29 14q13 0 31 -16l80 -86q12 -16 12 -29q0 -15 -14 -31l-80 -88q-20 -20 -29 -20q-16 0 -29 14l-88 101q-10 13 -10 26zM812 136q0 15 16 31l82 84q15 14 29 14q13 0 31 -16l80 -86q12 -16 12 -29q0 -15 -14 -31l-80 -88 q-20 -20 -29 -20q-16 0 -29 14l-88 101q-10 13 -10 26zM1495 136q0 15 16 31l82 84q15 14 29 14q13 0 31 -16l80 -86q12 -16 12 -29q0 -15 -14 -31l-80 -88q-20 -20 -29 -20q-16 0 -29 14l-88 101q-10 13 -10 26z" />
<glyph unicode="&#x202f;" horiz-adv-x="361" />
<glyph unicode="&#x2039;" horiz-adv-x="631" d="M174 479l342 303h14v-37l-205 -266l205 -266v-37h-14z" />
<glyph unicode="&#x203a;" horiz-adv-x="631" d="M101 176v37l205 266l-205 266v37h14l342 -303l-342 -303h-14z" />
<glyph unicode="&#x205f;" horiz-adv-x="451" />
<glyph unicode="&#x20ac;" d="M-44 653l17 60h87v29q0 16 1 31h-71l17 60h58q14 145 76 281q81 178 226 274t298 96q43 0 87 -8q40 -10 82 -29q8 -6 16 -6q20 0 34 45h41l84 -281l-40 -1q-49 134 -138 178q-43 22 -81 32v3q-50 16 -101 16q-17 0 -34 -2q-120 -12 -226 -113.5t-157 -273.5 q-32 -104 -39 -211h706l-17 -60h-692q0 -30 2 -60h674l-17 -60h-652q17 -158 83 -298q74 -157 193 -236q102 -68 216 -69q186 3 256 91q74 91 74 185h48v-143q0 -70 -111 -127q-105 -54 -267 -56q-181 0 -325.5 98t-223.5 274q-62 135 -76 281h-108z" />
<glyph unicode="&#x2122;" horiz-adv-x="1497" />
<glyph unicode="&#x25fc;" horiz-adv-x="500" d="M0 0z" />
</font>
</defs>
</svg>
